Перелом 2007

Перелом / Fracture (2007) BDRip [H.264]
Перелом / Fracture (2007) BDRip [H.264]
Год выпуска: 2007 Жанр: Триллер, Драма, Детектив Выпущено: США, Германия.
Описание фильма: Главный герой стреляет своей жене в голову из пистолета за измену с другим мужчиной. Затем делает еще несколько выстрелов в воздух и дожидается приезда полиции. Полиция забирает у него пистолет и получает письменное признание о содеянном преступлении. В виновности главного героя никто не сомневается и все считают, что исход суда очевиден. Но что-то в подозреваемом не так.
Режиссер: Грегори Хоблит Актеры: Энтони Хопкинс, Райан Гослинг, Дэвид Стрэтэйрн, Розамунд Пайк, Эмбет Дэвидц, Билли Бёрк, Клифф Кёртис, Фиона Шоу, Боб Гантон, Джош Стэмберг.
Продолжительность: 01:53:27 Качество видео: BDRip [H.264] Перевод: Дублированный Язык субтитров: Русский, Английский Вид субтитров: Вшитые (отключаемые)
Дата мировой премьеры: 11 апреля 2007 Дата российской премьеры: 5 июля 2007, «Каро-Премьер» Дата выхода Blu-Ray релиза: 2 июня 2009, «Юниверсал Пикчерс Рус»
Видеокодек: MPEG-4 AVC/H.264 Битрейт видео:
1254 kbps Размер кадра: 1024×432 Аудио #1: 48 kHz, AC3 Dolby Digital, 6 ch,
384.00 kbps | Русский (Дублированный) Аудио #2: 48 kHz, AC3 Dolby Digital, 2 ch,
192.00 kbps | Английский (Оригинал) Сэмпл: Ссылка.
Общее Уникальный идентификатор : 244106542096875872902124750137580601094 (0xB7A535BC4D7738A2A83064F8BA843F06) Полное имя : D:\Torrent\Fracture.2007.BDRip-AVC.mkv Формат : Matroska Версия формата : Version 4 / Version 2 Размер файла : 1,45 Гбайт Продолжительность : 1 ч. 53 м. Общий поток : 1832 Кбит/сек Название фильма : Перелом / Fracture (2007) BDRip-AVC rip by Rulya74 Дата кодирования : UTC 2013-08-02 05:01:39 Программа кодирования : mkvmerge v6.2.0 (‘Promised Land’) built on Apr 28 2013 12:22:01 Библиотека кодирования : libebml v1.3.0 + libmatroska v1.4.0.
Видео Идентификатор : 1 Формат : AVC Формат/Информация : Advanced Video Codec Профиль формата : High@L4.1 Параметр CABAC формата : Да Параметр ReFrames формата : 12 кадров Идентификатор кодека : V_MPEG4/ISO/AVC Продолжительность : 1 ч. 53 м. Битрейт : 1254 Кбит/сек Ширина : 1024 пикселя Высота : 432 пикселя Соотношение сторон : 2,40:1 Режим частоты кадров : Постоянный Частота кадров : 23,976 кадра/сек Цветовое пространство : YUV Субдискретизация насыщенности : 4:2:0 Битовая глубина : 8 бит Тип развёртки : Прогрессивная Бит/(Пиксели*Кадры) : 0.118 Размер потока : 990 Мбайт (67%) Библиотека кодирования : x264 core 133 r2334 a3ac64b Настройки программы : cabac=1 / ref=12 / deblock=1:-3:-2 / analyse=0x3:0x113 / me=umh / subme=10 / psy=1 / psy_rd=1.24:0.10 / mixed_ref=1 / me_range=32 / chroma_me=1 / trellis=2 / 8x8dct=1 / cqm=0 / deadzone=21,11 / fast_pskip=0 / chroma_qp_offset=-3 / threads=10 / lookahead_threads=1 / sliced_threads=0 / nr=0 / decimate=1 / interlaced=0 / bluray_compat=0 / constrained_intra=0 / bframes=9 / b_pyramid=2 / b_adapt=1 / b_bias=0 / direct=3 / weightb=1 / open_gop=0 / weightp=2 / keyint=240 / keyint_min=23 / scenecut=40 / intra_refresh=0 / rc_lookahead=40 / rc=2pass / mbtree=1 / bitrate=1254 / ratetol=1.0 / qcomp=0.60 / qpmin=0 / qpmax=69 / qpstep=4 / cplxblur=20.0 / qblur=0.5 / vbv_maxrate=62500 / vbv_bufsize=78125 / nal_hrd=none / ip_ratio=1.40 / aq=1:1.00 Default : Да Forced : Нет.
Аудио #1 Идентификатор : 2 Формат : AC-3 Формат/Информация : Audio Coding 3 Расширение режима : CM (complete main) Параметр Endianness формата : Big Идентификатор кодека : A_AC3 Продолжительность : 1 ч. 53 м. Вид битрейта : Постоянный Битрейт : 384 Кбит/сек Каналы : 6 каналов Расположение каналов : Front: L C R, Side: L R, LFE Частота : 48,0 КГц Битовая глубина : 16 бит Метод сжатия : С потерями Размер потока : 312 Мбайт (21%) Заголовок : Дублированный Язык : Russian Default : Да Forced : Нет.
Аудио #2 Идентификатор : 3 Формат : AC-3 Формат/Информация : Audio Coding 3 Расширение режима : CM (complete main) Параметр Endianness формата : Big Идентификатор кодека : A_AC3 Продолжительность : 1 ч. 53 м. Вид битрейта : Постоянный Битрейт : 192 Кбит/сек Каналы : 2 канала Расположение каналов : Front: L R Частота : 48,0 КГц Битовая глубина : 16 бит Метод сжатия : С потерями Размер потока : 156 Мбайт (10%) Заголовок : Оригинал Язык : English Default : Нет Forced : Нет.
Текст #1 Идентификатор : 4 Формат : UTF-8 Идентификатор кодека : S_TEXT/UTF8 Идентификатор кодека/Информация : UTF-8 Plain Text Язык : Russian Default : Да Forced : Нет.
Текст #2 Идентификатор : 5 Формат : UTF-8 Идентификатор кодека : S_TEXT/UTF8 Идентификатор кодека/Информация : UTF-8 Plain Text Язык : English Default : Нет Forced : Нет.

Добавить комментарий

Ваш e-mail не будет опубликован. Обязательные поля помечены *